Shns.Net - Digital Trading & FTP Server Lists Marley! - Phish.Com, TreyAnastasio.Com
tool
Home Page
Shn List
Dat List
FTP Server
Links
Profile


tool
tool's DAT Page



Dat Details
Date:
1994-09-11
Band:
Pink Floyd
Venue:
STADE DU GERLAND
City:
LYON
State:
FRA
Sets:
2
Media Count:
unavailable
Quality:
A+
Attended Show:
N
Taper:
Taper Location:
Source:
2CD "FRANCE 1994" (RED LINE - RLCD 32004) lineage: DAT MASTER > SILVER > CDR > EAC > WAV > FLAC (Via dBpower AMP, low compression) quality: EX+ AUDIENCE RECORDING (Some shouting folks sometimes sadly...)
Set 1:
CD 1/ SHINE ON YOU CRAZY DIAMOND LEARNING TO FLY WHAT DO YOU WANT FROM ME ON THE TURNING AWAY POLES APART TAKE IT BACK SORROW KEEP TALKING ONE OF THESE DAYS ASTRONOMY DOMINE
Set 2:
CD 2/ BREATHE TIME HIGH HOPES THE GREAT GIG IN THE SKY WISH YOU WERE HERE US AND THEM MONEY ANOTHER BRICK IN THE WALL COMFORTABLY NUMB HEY YOU RUN LIKE HELL
Set 3:
Set 4:
Show Notes:
artist: PINK FLOYD place: STADE DU GERLAND, LYON, FRANCE date: SEPTEMBER 11, 1994 source: 2CD "FRANCE 1994" (RED LINE - RLCD 32004) lineage: DAT MASTER > SILVER > CDR > EAC > WAV > FLAC (Via dBpower AMP, low compression) quality: EX+ AUDIENCE RECORDING (Some shouting folks sometimes sadly...) notes: I was there!!! One of my best ever concert!!! artwork: INCLUDED + MY TICKET'S SCAN + PRESS CLIPPINGS (In french language) tracks: CD 1/ SHINE ON YOU CRAZY DIAMOND LEARNING TO FLY WHAT DO YOU WANT FROM ME ON THE TURNING AWAY POLES APART TAKE IT BACK SORROW KEEP TALKING ONE OF THESE DAYS ASTRONOMY DOMINE CD 2/ BREATHE TIME HIGH HOPES THE GREAT GIG IN THE SKY WISH YOU WERE HERE US AND THEM MONEY ANOTHER BRICK IN THE WALL COMFORTABLY NUMB HEY YOU RUN LIKE HELL length expanded size cdr WAVE problems filename 11:43.00 124009244 --- -- ---xx D1-Track01.flac 5:57.50 63092444 --- -- ---xx D1-Track02.flac 4:20.25 45922844 --- -- ---xx D1-Track03.flac 7:25.50 78615644 --- -- ---xx D1-Track04.flac 7:56.00 83966444 --- -- ---xx D1-Track05.flac 6:55.00 73206044 --- -- ---xx D1-Track06.flac 11:37.50 123068444 --- -- ---xx D1-Track07.flac 7:52.00 83260844 --- -- ---xx D1-Track08.flac 8:24.00 88905644 --- -- ---xx D1-Track09.flac 4:59.49 52858892 --- -- ---xx D1-Track10.flac 3:07.62 33132668 --- -- ---xx D2-Track01.flac 6:53.13 72883820 --- -- ---xx D2-Track02.flac 8:04.00 85377644 --- -- ---xx D2-Track03.flac 6:03.50 64150844 --- -- ---xx D2-Track04.flac 5:47.25 61269644 --- -- ---xx D2-Track05.flac 6:31.00 68972444 --- -- ---xx D2-Track06.flac 10:13.25 108192044 --- -- ---xx D2-Track07.flac 7:17.25 77145644 --- -- ---xx D2-Track08.flac 11:09.25 118070444 --- -- ---xx D2-Track09.flac 5:01.00 53096444 --- -- ---xx D2-Track10.flac 7:20.74 77790092 --- -- ---xx D2-Track11.flac 154:39.73 1636988220 B (totals for 21 files, 0.7072 overall compression ratio) Enjoy, Share & Preserve Quality !!! Brought to You by BP [November 2005]
Allow Snail Mail Trade:
Y
Allow B&P Trade:
Y
 

Copyright © 2002-2017 by Scott Harris - All rights reserved. All specifications subject to change without notice. Other products and companies referred to herein are trademarks or registered trademarks of their respective companies or mark holders. If you have any questions or problems with this web site, please contact the webmaster. This site was designed and developed by Scott Harris